<?xml version="1.0" standalone="no"?>
<!DOCTYPE svg PUBLIC "-//W3C//DTD SVG 1.1//EN" "http://www.w3.org/Graphics/SVG/1.1/DTD/svg11.dtd" >
<svg xmlns="http://www.w3.org/2000/svg">
<metadata>
Created by FontForge 20120731 at Wed Oct  7 15:06:22 2015
 By Ads
</metadata>
<defs>
<font id="iconfont" horiz-adv-x="1024" >
  <font-face 
    font-family="iconfont"
    font-weight="500"
    font-stretch="normal"
    units-per-em="1024"
    panose-1="2 0 6 3 0 0 0 0 0 0"
    ascent="812"
    descent="-212"
    x-height="792"
    bbox="0 -224.981 1027 812"
    underline-thickness="50"
    underline-position="-100"
    unicode-range="U+0078-E632"
  />
<missing-glyph horiz-adv-x="374" 
d="M34 0v682h272v-682h-272zM68 34h204v614h-204v-614z" />
    <glyph glyph-name=".notdef" horiz-adv-x="374" 
d="M34 0v682h272v-682h-272zM68 34h204v614h-204v-614z" />
    <glyph glyph-name=".null" horiz-adv-x="0" 
 />
    <glyph glyph-name="nonmarkingreturn" horiz-adv-x="341" 
 />
    <glyph glyph-name="x" unicode="x" horiz-adv-x="1001" 
d="M281 543q-27 -1 -53 -1h-83q-18 0 -36.5 -6t-32.5 -18.5t-23 -32t-9 -45.5v-76h912v41q0 16 -0.5 30t-0.5 18q0 13 -5 29t-17 29.5t-31.5 22.5t-49.5 9h-133v-97h-438v97zM955 310v-52q0 -23 0.5 -52t0.5 -58t-10.5 -47.5t-26 -30t-33 -16t-31.5 -4.5q-14 -1 -29.5 -0.5
t-29.5 0.5h-32l-45 128h-439l-44 -128h-29h-34q-20 0 -45 1q-25 0 -41 9.5t-25.5 23t-13.5 29.5t-4 30v167h911zM163 247q-12 0 -21 -8.5t-9 -21.5t9 -21.5t21 -8.5q13 0 22 8.5t9 21.5t-9 21.5t-22 8.5zM316 123q-8 -26 -14 -48q-5 -19 -10.5 -37t-7.5 -25t-3 -15t1 -14.5
t9.5 -10.5t21.5 -4h37h67h81h80h64h36q23 0 34 12t2 38q-5 13 -9.5 30.5t-9.5 34.5q-5 19 -11 39h-368zM336 498v228q0 11 2.5 23t10 21.5t20.5 15.5t34 6h188q31 0 51.5 -14.5t20.5 -52.5v-227h-327z" />
    <glyph glyph-name="uniE600" unicode="&#xe600;" 
d="M461 326h25v25v218q0 66 -32.5 122t-88.5 88.5t-122 32.5q-101 0 -172 -71t-71 -172t71 -172t172 -71h218zM51 569q0 79 56.5 135.5t136 56.5t135.5 -56.5t56 -135.5v-218l26 26h-218q-89 0 -147 68q-44 55 -45 124zM461 223l-26 26v-218q0 -79 -56 -135.5t-136 -56.5
q-89 0 -147 69q-44 54 -45 123q0 80 56.5 136t135.5 56h218zM0 31q0 -101 71 -172t172 -71t172 71t71 172v218v25h-25h-218q-101 0 -172 -71t-71 -172zM563 377l26 -26v218q0 79 56 135.5t135.5 56.5t136 -56.5t56.5 -135.5q0 -31 -10 -60.5t-27.5 -53t-41 -41.5t-53 -27.5
t-60.5 -9.5h-218zM1024 569q0 101 -71 172t-172 71t-172 -71t-71 -172v-218v-25h25h218q101 0 172 71t71 172zM1024 31q0 101 -71 172t-172 71h-218h-25v-25v-218q0 -101 71 -172t172 -71q57 0 107 25q6 3 10 9t4.5 12.5t-2.5 12.5q-5 10 -15 13.5t-19 -1.5q-40 -20 -85 -20
q-80 0 -136 56.5t-56 135.5v218l-26 -26h218q79 0 135.5 -56t56.5 -136q0 -7 -0.5 -14t-1.5 -13.5t-2.5 -13.5t-3.5 -13q-3 -10 2 -19.5t15 -12.5t19.5 2t12.5 15q10 34 10 69z" />
    <glyph glyph-name="uniE601" unicode="&#xe601;" 
d="M364 339q-13 -12 -18 -28t0 -32.5t19 -27.5l309 -271q2 -1 3.5 -2.5t3.5 -2t4 -0.5h4q2 0 4 0.5t4 1.5l4 2q2 1 3 3q6 7 5.5 15.5t-7.5 14.5l-309 271q-14 12 -1 24l310 281q4 3 5.5 7t2 8t-1 8t-4.5 7q-4 5 -9.5 6.5t-11 0.5t-9.5 -5z" />
    <glyph glyph-name="uniE602" unicode="&#xe602;" 
d="M134 556q10 0 17 6t7 15t-7 15.5t-17 6.5h-97q-11 0 -18 -6.5t-7 -15.5t7 -15t18 -6h97zM134 279q10 0 17 6t7 15q0 6 -3 11t-8.5 7.5t-12.5 2.5h-97q-11 0 -18 -6t-7 -15q0 -6 3.5 -11t9 -7.5t12.5 -2.5h97zM134 1q10 0 17 6.5t7 15.5q0 5 -3 10t-8.5 8t-12.5 3h-97
q-4 0 -8 -1t-7 -3t-5 -4.5t-3.5 -6t-1.5 -6.5q0 -17 18 -21q4 -1 7 -1h97zM987 556q7 0 12.5 3t9 8t3.5 10q0 9 -7 15.5t-18 6.5h-707q-10 0 -17 -6.5t-7 -15.5t7 -15t17 -6h707zM994 279q6 0 11.5 2.5t9 7.5t3.5 11q0 4 -2 8t-5 7t-8 4.5t-9 1.5h-708q-6 0 -11.5 -2.5
t-9 -7.5t-3.5 -11q0 -9 7 -15t17 -6h708zM997 1q10 0 17 6.5t7 15.5t-7 15t-17 6h-707q-11 0 -18 -6t-7 -15t7 -15.5t18 -6.5h707z" />
    <glyph glyph-name="uniE603" unicode="&#xe603;" 
d="M177 -5q-6 -7 -6 -15.5t6 -14.5q4 -4 9.5 -5.5t11 0t9.5 5.5l619 640q4 4 5.5 9.5t0 11t-6.5 9.5q-6 6 -15 6t-15 -6zM795 -35q6 -6 15 -6t15.5 6t6.5 14.5t-6 15.5l-619 640q-4 4 -9.5 5.5t-11 0t-9.5 -5.5q-6 -6 -6 -14.5t6 -15.5z" />
    <glyph glyph-name="uniE604" unicode="&#xe604;" 
d="M131 23q-32 0 -55 23.5t-23 56.5v640l-27 -27h867q16 0 30.5 -6.5t25 -17t16.5 -25.5t6 -31v-640l27 27h-473h-8l-6 -5l-225 -151q-9 -6 -11.5 -16.5t3.5 -20t17 -11.5t20 4l225 151l-15 -5h473h26v27v640q0 55 -38.5 94t-92.5 39h-867h-26v-26v-640q0 -56 38.5 -95
t92.5 -39h137q7 0 13 3.5t9.5 10t3.5 13.5q0 5 -2 10t-5.5 8.5t-8.5 6t-10 2.5h-137zM368 369.5q0 44.5 -31 75.5t-74 31q-22 0 -41.5 -8.5t-33.5 -22.5t-22 -34t-8 -42q0 -44 30.5 -75t74 -31t74.5 31t31 75.5zM210 369q0 22 15.5 38t37.5 16q7 0 13.5 -2t12.5 -5.5
t11 -8.5t8 -11t5 -12.5t2 -14.5q0 -22 -15.5 -37.5t-37 -15.5t-37 15.5t-15.5 37.5zM630 369q0 45 -30.5 76t-74 31t-74.5 -31t-31 -75.5t31 -75.5t74 -31q21 0 40.5 8.5t34 22.5t22.5 34t8 41zM473 369q0 22 15 38t37 16t37.5 -16t15.5 -38t-15.5 -37.5t-37.5 -15.5
q-11 0 -20.5 4t-16.5 11.5t-11 17t-4 20.5zM893 369.5q0 44.5 -31 75.5t-74.5 31t-74 -31t-30.5 -76q0 -29 14 -53.5t38 -38.5t53 -14q43 0 74 31t31 75.5zM735 369q0 22 15.5 38t37.5 16q14 0 26 -7.5t19 -19.5t7 -27q0 -22 -15.5 -37.5t-36.5 -15.5q-9 0 -17 2.5
t-14.5 7.5t-11.5 11.5t-7.5 15t-2.5 16.5z" />
    <glyph glyph-name="uniE605" unicode="&#xe605;" 
d="M34 581h-25v-25v-598q0 -52 36.5 -89t88.5 -37h794h25v25v484q0 10 -7.5 17.5t-17.5 7.5q-3 0 -6.5 -1t-6 -2.5t-5 -4t-4 -5t-2.5 -6t-1 -6.5v-484l25 25h-794q-44 0 -66 39q-9 18 -9 37v598l-25 -25h565q10 0 17.5 7t7.5 17.5t-7.5 18t-17.5 7.5h-565zM437 218l-5 -6v-9
l-4 -149l-1 -36l34 12l144 51l7 3l4 6l387 511l16 20l-21 16l-129 97l-19 15l-15 -20zM840 694l128 -98l-4 36l-387 -511l11 8l-143 -52l33 -24l4 149l-6 -15l398 511zM891 501l29 41l-112 82l-29 -41z" />
    <glyph glyph-name="uniE606" unicode="&#xe606;" 
d="M973 -122l25 25h-870q-32 0 -54.5 23t-22.5 55v720l-25 -26h870q21 0 38.5 -10t28 -28t10.5 -39v-65q0 -10 7.5 -17.5t17.5 -7.5q6 0 10.5 2t8 5.5t5.5 8t2 9.5v65q0 26 -10 50t-27.5 41t-41 27.5t-49.5 10.5h-870h-26v-26v-720q0 -54 37.5 -91.5t90.5 -37.5h870h26v26
v476q0 11 -7.5 18.5t-18 7.5t-18 -7.5t-7.5 -18.5v-476zM513 245q6 -4 13 -4.5t14 2.5l463 255q9 5 12 15.5t-2 20t-15.5 12.5t-19.5 -3l-463 -255l27 -1l-348 248q-3 3 -7 4t-8 1t-8 -1t-7 -3.5t-6 -6.5q-6 -8 -4 -18.5t10 -16.5z" />
    <glyph glyph-name="uniE607" unicode="&#xe607;" 
d="M472 728q10 23 17 22.5t17 -22.5l114 -265q2 -4 5.5 -7.5t8 -5.5t9.5 -2t10 2q9 4 13 13.5t0 19.5l-113 264q-23 53 -63 53t-64 -52l-119 -260q-3 -5 -3 -10t2 -9t5.5 -8t7.5 -6q10 -4 19.5 -0.5t14.5 13.5zM946 404q9 -1 14.5 -2.5t9 -3t4 -4t-1 -6t-5.5 -7.5t-10 -9
l-221 -188q-6 -5 -8 -11t-1 -12.5t6 -11.5q7 -8 17.5 -8.5t18.5 5.5l221 188q44 37 32 75t-70 44l-289 31q-11 1 -19 -5.5t-9 -16.5q-1 -5 0.5 -10t4.5 -8.5t7.5 -6t9.5 -3.5zM789 -146q4 -16 2.5 -23t-8.5 -6t-22 9l-250 149q-9 5 -19 2.5t-16 -11.5q-2 -3 -2.5 -7
t-0.5 -7.5t1.5 -7.5t4.5 -7t6 -5l250 -148q50 -30 83 -7t21 79l-60 279q-2 11 -10.5 16.5t-19 3.5t-16 -11t-3.5 -19zM233 -163q-22 -13 -27.5 -8.5t-0.5 28.5l67 279q2 10 -3.5 18.5t-15.5 11.5q-7 1 -13.5 -1t-11 -6.5t-6.5 -11.5l-66 -279q-13 -56 19 -79.5t83 5.5
l252 142q9 5 12 14.5t-2.5 18.5t-15.5 12t-19 -2zM130 299q-48 42 -88 78q-4 3 -8.5 4.5t-9.5 1.5t-9.5 -2t-7.5 -6q-7 -8 -6.5 -18t7.5 -17q40 -35 88 -78l128 -114q5 -4 11.5 -5.5t13 0.5t10.5 7q3 3 5 6.5t2 7.5t-0.5 7.5t-2.5 7t-5 6.5q-32 29 -128 114zM180 418h4
q2 0 4 0.5t4 0.5h4q2 0 3.5 0.5t3.5 0.5t4 0.5t4 0.5l38 4l38 4q13 2 24 3q3 0 5.5 0.5t3.5 0.5q10 1 16.5 9.5t5.5 18.5t-9.5 16.5t-18.5 4.5q-3 0 -9 -1q-11 -1 -23 -2q-40 -5 -76 -9q-8 -1 -15.5 -1.5t-15.5 -1.5q-15 -2 -29 -3t-27 -2q-7 -1 -12.5 -4.5t-8 -9.5
t-2.5 -13q1 -10 9 -16.5t18 -6.5q25 3 57 6z" />
    <glyph glyph-name="uniE608" unicode="&#xe608;" 
d="M1024 300q0 139 -68.5 257t-186.5 186.5t-257 68.5t-257 -68.5t-186.5 -186.5t-68.5 -257t68.5 -257t186.5 -186.5t257 -68.5q44 0 87 7.5t83 21.5t77.5 34.5t71.5 47.5q8 7 9 17t-5.5 18.5t-16.5 9.5t-18 -6q-126 -100 -288 -100q-175 0 -305 115q-127 111 -152 277
q-5 35 -5 70q0 94 36.5 179.5t98.5 147.5t147.5 98.5t179.5 36.5t179.5 -36.5t147.5 -98.5t98.5 -147.5t36.5 -179.5q0 -132 -70 -244q-5 -9 -2.5 -19t11 -15.5t18.5 -3t16 11.5q77 123 77 270zM533 121q14 0 24 -10t10 -25v-9q0 -14 -10 -24t-24 -10t-24 10t-10 24v9
q0 15 10 25t24 10zM375 393q0 -2 1 -6t8.5 -10.5t19.5 -6.5q7 0 12.5 2.5t8.5 6t4.5 6.5t1.5 6l1 2q-2 58 24.5 85t80.5 24q73 -8 75 -81q-5 -33 -54 -85q-65 -65 -65 -117v-35q1 -1 1 -1.5t1 -3t2 -4.5t3 -4t4.5 -4t7 -3t9.5 -1q10 0 17 5t8 10l2 6v24q0 15 6.5 31
t20.5 34.5t35 38.5q32 30 48 57t16 52q-5 136 -142 141q-157 3 -157 -169z" />
    <glyph glyph-name="uniE609" unicode="&#xe609;" 
d="M1024 300q0 139 -68.5 257t-186.5 186.5t-257 68.5t-257 -68.5t-186.5 -186.5t-68.5 -257t68.5 -257t186.5 -186.5t257 -68.5q44 0 87 7.5t83 21.5t77.5 34.5t71.5 47.5q8 7 9 17t-5.5 18.5t-16.5 9.5t-18 -6q-126 -100 -288 -100q-175 0 -305 115q-127 111 -152 277
q-5 35 -5 70q0 94 36.5 179.5t98.5 147.5t147.5 98.5t179.5 36.5t179.5 -36.5t147.5 -98.5t98.5 -147.5t36.5 -179.5q0 -132 -70 -244q-5 -9 -2.5 -19t11 -15.5t18.5 -3t16 11.5q77 123 77 270zM500 69q0 -10 7 -17.5t17.5 -7.5t17.5 7.5t7 17.5v318q0 11 -7 18t-17.5 7
t-17.5 -7t-7 -18v-318zM500 494q0 -4 0.5 -7t2.5 -6t4 -5t5 -4t6 -2.5t6 -0.5q11 0 18 7t7 18v43q0 25 -25 25q-10 0 -17 -7t-7 -18v-43z" />
    <glyph glyph-name="uniE60A" unicode="&#xe60a;" 
d="M510 425q12 14 25 0l270 -310q6 -6 15 -7t15.5 5t7 15t-5.5 15l-270 310q-18 20 -44 20.5t-45 -20.5l-280 -309q-6 -7 -6 -16t7 -14q3 -3 7 -4.5t8 -1.5t8 2t7 5z" />
    <glyph glyph-name="uniE60B" unicode="&#xe60b;" 
d="M390 742l-24 24v-342l24 24h-341l24 -24v342l-24 -24h341zM24 791v-25v-342v-25h25h341h24v25v342v25h-24h-341h-25zM390 155l-24 24v-342l24 24h-292q-7 0 -12.5 3.5t-9 9t-3.5 12.5v293l-24 -24h341zM24 204v-25v-293q0 -30 21.5 -52t52.5 -22h292h24v25v342v25h-24
h-341h-25zM926 742q10 0 17.5 -7.5t7.5 -17.5v-293l24 24h-341l24 -24v342l-24 -24h292zM610 791v-25v-342v-25h24h341h25v25v293q0 20 -10 37t-27 27t-37 10h-292h-24zM975 155l-24 24v-342l24 24h-341l24 -24v342l-24 -24h341zM610 204v-25v-342v-25h24h341h25v25v342v25
h-25h-341h-24zM488 424q0 -11 7 -18t17 -7t17 7t7 18v269q0 5 -1.5 9.5t-5 7.5t-8 5t-9.5 2q-10 0 -17 -7t-7 -17v-269zM585 131q0 2 -0.5 5t-2 5.5t-3 4.5t-3.5 3.5t-4.5 3t-5 2t-5.5 0.5q-10 0 -17.5 -7t-7.5 -17v-294q0 -5 2 -9.5t5.5 -8t8 -5.5t9.5 -2q4 0 7.5 1.5
t6.5 3.5t5.5 5t3.5 7t1 8v294zM488 33q0 5 -2 9.5t-5.5 7.5t-8 5t-9.5 2q-3 0 -6 -1t-6 -2.5t-5 -3.5t-3.5 -5t-2.5 -6t-1 -6v-196q0 -10 7 -17.5t17 -7.5q7 0 12.5 3.5t9 9t3.5 12.5v196zM1000 277q6 0 11.5 3.5t9 9t3.5 12.5q0 10 -7 17t-17 7h-976q-10 0 -17 -7t-7 -17.5
t7 -17.5t17 -7h976z" />
    <glyph glyph-name="uniE60C" unicode="&#xe60c;" 
d="M512 812q-139 0 -257 -68.5t-186.5 -186.5t-68.5 -257t68.5 -257t186.5 -186.5t257 -68.5q123 0 231 54.5t180 151t93 216.5q2 9 3 17.5t2 16.5q1 5 -0.5 10t-4.5 8.5t-7.5 6t-9.5 3.5q-10 1 -18.5 -5.5t-9.5 -16.5q0 -5 -1 -10.5t-1.5 -10.5t-1.5 -10
q-29 -165 -158 -273t-297 -108q-175 0 -305 115q-127 111 -152 277q-5 35 -5 70q0 94 36.5 179.5t98.5 147.5t147.5 98.5t179.5 36.5q28 0 55.5 -3.5t53.5 -9.5t51 -15.5t48.5 -21.5t46 -26.5t42.5 -31.5t38.5 -36.5t34.5 -41t29.5 -45t24.5 -48.5q4 -9 14 -13t19.5 0t13 14
t-0.5 19q-60 140 -188 224.5t-282 84.5zM958 462l25 25h-259q-10 0 -17.5 -7.5t-7.5 -18t7.5 -17.5t17.5 -7h259q11 0 18 7t7 18v275q0 10 -7 17.5t-18 7.5q-6 0 -12 -3.5t-9.5 -9t-3.5 -12.5v-275z" />
    <glyph glyph-name="uniE60D" unicode="&#xe60d;" 
d="M1002 -180q-2 4 -2 5t-1 2q-1 2 -2 3.5t-2 2.5q-2 2 -4.5 5t-5.5 6q-10 12 -31 34q-16 16 -35.5 36t-60.5 62q-69 70 -95 97q-20 21 -30 32q-1 2 -3 3l-2 3l-2 2l2 -1q0 -1 1 -4q1 -6 0 -9t-7 -16q62 60 95.5 139.5t33.5 167.5q0 114 -55.5 211.5t-151 154t-208.5 56.5
q-160 0 -278 -109q-116 -107 -134 -264q-3 -25 -3 -49q0 -164 109 -285q104 -117 258 -135q25 -3 48 -3q4 0 8 0.5t8 0.5q5 0 15 1q17 2 23 2q7 0 18.5 2.5t28.5 7.5l8 2q13 3 26 7q4 2 6.5 2.5t4.5 1.5q10 3 15 12.5t2 19.5t-12.5 15t-19.5 2q-4 -2 -11 -4q-13 -4 -24 -7
l-8 -2l-12 -4l-10 -2q-4 -1 -7 -1.5t-5 -0.5q-5 0 -11 -0.5t-17 -1.5q-5 0 -8 -0.5t-5 -0.5q-7 -1 -13 -1q-99 0 -183 50t-132.5 135.5t-48.5 186.5q0 75 28.5 144t77.5 118.5t116.5 79t141.5 29.5q99 0 183 -50t133 -135.5t49 -185.5q0 -78 -29.5 -147.5t-84.5 -122.5
q-7 -13 -8 -16.5t1 -9.5q2 -4 3 -7l4 -5q1 -2 2.5 -3.5t3 -3.5t3.5 -4.5t4.5 -5t5.5 -6t6.5 -7t7 -7.5t7.5 -8q16 -16 36 -37l60 -61q69 -70 95 -97q20 -21 30 -32l7 -8q-1 2 -2 6q-2 6 -1 9t9 16q-8 -7 -9 -17.5t6 -18.5q4 -5 10.5 -7.5t13 -1t11.5 5.5q8 13 9 16.5t0 9.5z
" />
    <glyph glyph-name="uniE60E" unicode="&#xe60e;" 
d="M464 135q8 -7 18 -7t17 8l300 309q5 5 6.5 11.5t-0.5 13t-7 10.5q-7 7 -17.5 7t-17.5 -7l-300 -310l35 1l-181 167q-8 7 -18.5 6.5t-17.5 -8t-6.5 -18t8.5 -17.5z" />
    <glyph glyph-name="uniE60F" unicode="&#xe60f;" 
d="M826 164l-7 -12l8 -12l78 -116l4 31l-139 -135l29 3l-128 76l-10 6l-11 -4q-6 -3 -12.5 -5t-12.5 -5l-13 -4l-3 -14l-28 -131l24 19h-197l24 -18l-34 137l-3 13l-12 4q-11 4 -22 10l-12 5l-11 -7l-120 -77l30 -3l-139 136l4 -31l78 125l7 11l-6 11l-10 26l-4 13l-14 2
l-135 28l20 -24v191l-19 -23l141 33l12 3l5 11q3 7 5.5 13t6.5 12l6 13l-8 12l-73 110l-3 -30l138 136l-30 -3l123 -75l10 -6l12 5l10 4l10 4l12 4l3 13l33 133l-23 -19h196l-24 20l29 -136l3 -13l13 -5q15 -6 30 -13l12 -6l11 7l114 72l-30 3l140 -135l-4 31l-76 -120
l-7 -11l5 -12q6 -12 10 -25l5 -12l13 -4l134 -31l-19 24v-192l20 24l-142 -29l-13 -2l-5 -12q-1 -4 -2.5 -7.5t-3.5 -7t-3 -7.5zM858 176l5 -24l141 29l20 4v20v192v19l-19 4l-134 32l-6 -24l23 8q-2 7 -5 14.5t-6 14.5l-22 -10l20 -13l77 120l10 17l-14 13l-140 135l-14 13
l-16 -10l-114 -71l13 -21l11 22q-9 4 -17.5 7.5t-16.5 7.5l-9 -23l24 5l-29 136l-4 19h-20h-196h-19l-5 -19l-33 -133l24 -5l-8 23q-6 -2 -11.5 -4.5t-11.5 -4.5l9 -23l13 21l-123 74l-16 10l-14 -13l-138 -137l-14 -14l11 -17l73 -110l21 13l-22 11q-3 -7 -6.5 -14
t-6.5 -14l23 -9l-6 23l-141 -33l-19 -4v-20v-191v-20l20 -4l134 -27l5 24l-23 -9q5 -14 12 -28l22 10l-21 12l-78 -124l-10 -17l14 -13l139 -136l14 -13l16 10l120 77l-13 20l-10 -22l24 -10l9 22l-23 -5l34 -138l4 -19h19h197h20l4 20l28 131l-24 5l7 -23q5 2 10 3.5
t9.5 3.5t8.5 4l-9 22l-12 -21l127 -76l16 -9l14 13l139 135l14 14l-11 17l-78 116l-21 -13l22 -11l6 12q3 6 5 12zM731 312q0 42 -16 80.5t-44 66.5t-66.5 44t-80.5 16q-86 0 -146.5 -60.5t-60.5 -146.5t60.5 -146.5t146.5 -60.5q15 0 29.5 2t28 6t26.5 10q9 4 13 13.5
t0 18.5t-13.5 12.5t-19.5 -0.5q-30 -13 -64 -13q-43 0 -79.5 21t-57.5 57.5t-21 79.5q0 66 46.5 112.5t112 46.5t112 -46.5t46.5 -112.5q0 -8 -1 -17t-3 -17q-2 -10 3.5 -18.5t15 -10.5t18 3.5t11.5 15.5q4 22 4 44z" />
    <glyph glyph-name="uniE610" unicode="&#xe610;" 
d="M1024 300q0 139 -68.5 257t-186.5 186.5t-257 68.5t-257 -68.5t-186.5 -186.5t-68.5 -257t68.5 -257t186.5 -186.5t257 -68.5q44 0 87 7.5t83 21.5t77.5 34.5t71.5 47.5q8 7 9 17t-5.5 18.5t-16.5 9.5t-18 -6q-126 -100 -288 -100q-175 0 -305 115q-127 111 -152 277
q-5 35 -5 70q0 94 36.5 179.5t98.5 147.5t147.5 98.5t179.5 36.5t179.5 -36.5t147.5 -98.5t98.5 -147.5t36.5 -179.5q0 -132 -70 -244q-5 -9 -2.5 -19t11 -15.5t18.5 -3t16 11.5q77 123 77 270zM337 312q17 0 31.5 8.5t23 23t8.5 31.5q0 26 -18.5 44t-44.5 18t-44 -18
t-18 -44q0 -13 5 -24.5t13 -20t19.5 -13.5t24.5 -5zM712 312q26 0 44 18.5t18 44.5t-18 44t-44 18q-9 0 -17 -2t-15 -6t-12.5 -10t-9.5 -12.5t-6.5 -15t-2.5 -16.5q0 -26 18.5 -44.5t44.5 -18.5zM353 43q69 -55 171.5 -55t171.5 55q36 29 51 59q3 6 2.5 12.5t-4 12
t-10.5 8.5q-6 3 -12.5 2.5t-12 -4t-8.5 -9.5q-1 -1 -1.5 -2.5t-2.5 -4t-4 -5.5q-6 -8 -13 -15.5t-16 -14.5q-13 -10 -28 -18.5t-32.5 -14t-37.5 -8.5t-43 -3q-84 0 -140 44q-17 14 -29 30q-6 8 -8 12q-5 9 -14.5 12.5t-19 -1.5t-12.5 -14.5t1 -18.5q7 -13 19.5 -28.5
t31.5 -30.5z" />
    <glyph glyph-name="uniE611" unicode="&#xe611;" 
d="M147 762h202q31 0 53 -22t22 -53v-224q0 -32 -22 -54t-53 -22h-202q-31 0 -53 22t-22 54v224q0 31 22 53t53 22zM21 463q0 -52 37 -89t89 -37h202q20 0 39 6.5t34.5 18t27.5 27t18 34.5t6 40v224q0 52 -36.5 88.5t-88.5 36.5h-202q-17 0 -33.5 -4.5t-30 -12.5t-25 -19.5
t-20 -25.5t-13 -30t-4.5 -33v-224zM675 762h202q15 0 29 -6t24 -16t16 -24t6 -29v-224q0 -32 -22 -54t-53 -22h-202q-10 0 -19.5 3t-18 7.5t-15.5 11.5t-12 15.5t-7.5 18t-2.5 20.5v224q0 31 22 53t53 22zM550 463q0 -35 16.5 -63.5t45.5 -45.5t63 -17h202q26 0 49 10t40 27
t27 40t10 49v224q0 52 -37 88.5t-89 36.5h-202q-52 0 -88.5 -36.5t-36.5 -88.5v-224zM147 213h202q31 0 53 -22t22 -54v-224q0 -31 -22 -53t-53 -22h-202q-31 0 -53 22t-22 53v224q0 32 22 54t53 22zM21 -87q0 -52 37 -88.5t89 -36.5h202q52 0 88.5 36.5t36.5 88.5v224
q0 52 -36.5 89t-88.5 37h-202q-20 0 -39.5 -6.5t-35 -18t-27 -27t-18 -34.5t-6.5 -40v-224zM875 -162h-7h-23h-69h-101q-12 0 -23.5 4t-20.5 10.5t-16 16t-11 21t-4 23.5v224q0 32 22 54t53 22h202q12 0 23.5 -4t21 -11t16.5 -16t10.5 -20.5t3.5 -23.5v-195v-30
q0 -7 3.5 -12.5t9.5 -9t13 -3.5q10 0 17.5 7.5t7.5 17.5v30v195q0 20 -6.5 39t-18 34.5t-27 27t-35 18t-39.5 6.5h-202q-52 0 -88.5 -37t-36.5 -89v-224q0 -25 10 -48.5t26.5 -40t40 -26.5t48.5 -10h101h69h23h7h1q6 0 10.5 2t8 5.5t5.5 8t2 9.5q0 10 -7.5 17.5t-17.5 7.5
h-2z" />
    <glyph glyph-name="uniE612" unicode="&#xe612;" 
d="M147 762h200q11 0 20.5 -2.5t17.5 -7.5t15 -12t12 -15t7.5 -18t2.5 -20v-224q0 -16 -5.5 -30t-16 -24t-24 -16t-29.5 -6h-200q-32 0 -54 22t-22 54v224q0 31 22 53t54 22zM21 463q0 -52 37 -89t89 -37h200q52 0 89 37t37 89v224q0 52 -37 88.5t-89 36.5h-200
q-52 0 -89 -36.5t-37 -88.5v-224zM147 213h200q31 0 53 -22t22 -54v-224q0 -15 -5.5 -29t-16 -24t-24 -16t-29.5 -6h-200q-21 0 -38 10t-27.5 27.5t-10.5 37.5v224q0 32 22 54t54 22zM21 -87q0 -25 10 -48.5t27 -40t40 -26.5t49 -10h200q26 0 49 10t40 26.5t27 40t10 48.5
v224q0 52 -37 89t-89 37h-200q-52 0 -89 -37t-37 -89v-224zM999 662q10 0 17.5 7.5t7.5 17.5t-7.5 17.5t-17.5 7.5h-426q-11 0 -18 -7.5t-7 -17.5t7 -17.5t18 -7.5h426zM999 537q5 0 9.5 2t8 5.5t5.5 8t2 9.5q0 11 -7.5 18t-17.5 7h-426q-5 0 -10 -2t-8 -5t-5 -8t-2 -10
q0 -10 7 -17.5t18 -7.5h426zM999 412q10 0 17.5 7.5t7.5 18t-7.5 17.5t-17.5 7h-426q-11 0 -18 -7t-7 -17.5t7 -18t18 -7.5h426zM999 138q10 0 17.5 7t7.5 18q0 6 -3.5 12t-9 9.5t-12.5 3.5h-426q-11 0 -18 -7.5t-7 -17.5q0 -5 2 -10t5 -8t8 -5t10 -2h426zM999 13
q10 0 17.5 7t7.5 18q0 5 -2 9.5t-5.5 8t-8 5.5t-9.5 2h-426q-7 0 -13 -3.5t-9 -9t-3 -12.5q0 -11 7 -18t18 -7h426zM999 -112q10 0 17.5 7.5t7.5 17.5q0 5 -2 9.5t-5.5 8t-8 5.5t-9.5 2h-426q-11 0 -18 -7.5t-7 -17.5t7 -17.5t18 -7.5h426z" />
    <glyph glyph-name="uniE613" unicode="&#xe613;" 
d="M598 654q-40 64 -100 64t-100 -64l-373 -602q-40 -65 -12.5 -116.5t103.5 -52.5h775q78 -2 105 40.5t-13 107.5v1h-1v1l-1 1v1h-1v1l-1 1v1l-1 1v1l-1 1v1h-1v1l-1 1v1l-1 1l-1 1v1l-1 1v0l-1 2l-1 1l-1 2v1l-1 1h-1v1l-1 1v1l-1 1l-1 2q-6 9 -16 11.5t-18.5 -3
t-11 -15.5t2.5 -19l1 -1l1 -2v-1h1v-1l1 -1v-1h1v-1l1 -1v-1l1 -1l1 -2v0l2 -2l1 -2l1 -2l1 -2l1 -2l1 -1l1 -1l1 -1v-2h1v-1l1 -1l1 -2q23 -38 11.5 -55t-60.5 -16h-775q-47 1 -61 26.5t11 65.5l373 602q26 41 58.5 41t57.5 -41l301 -472q6 -9 16 -11t18.5 3.5t11 16
t-3.5 18.5zM475 192q0 -10 7 -17.5t17.5 -7.5t17.5 7.5t7 17.5v320q0 11 -7 18t-17.5 7t-17.5 -7t-7 -18v-320zM474 35q1 -10 8 -17.5t17.5 -7.5t17.5 7.5t7 18.5v64q0 10 -7.5 17.5t-18 7t-17.5 -7.5t-7 -18v-64z" />
    <glyph glyph-name="uniE614" unicode="&#xe614;" 
d="M1024 300q0 139 -68.5 257t-186.5 186.5t-257 68.5t-257 -68.5t-186.5 -186.5t-68.5 -257t68.5 -257t186.5 -186.5t257 -68.5q44 0 87 7.5t83 21.5t77.5 34.5t71.5 47.5q8 7 9 17t-5.5 18.5t-16.5 9.5t-18 -6q-126 -100 -288 -100q-175 0 -305 115q-127 111 -152 277
q-5 35 -5 70q0 94 36.5 179.5t98.5 147.5t147.5 98.5t179.5 36.5t179.5 -36.5t147.5 -98.5t98.5 -147.5t36.5 -179.5q0 -132 -70 -244q-5 -9 -2.5 -19t11 -15.5t18.5 -3t16 11.5q77 123 77 270zM332 148q-7 -7 -7 -17.5t7.5 -17.5t17.5 -7t17 7l350 357q8 7 8 17.5t-8 17.5
q-3 4 -8 5.5t-9.5 1.5t-9.5 -2t-8 -5zM682 113q7 -7 17.5 -7t17.5 7q4 4 6 8.5t2 9t-2 9.5t-6 8l-350 357q-7 7 -17 7t-17.5 -7t-7.5 -17.5t7 -17.5z" />
    <glyph glyph-name="uniE615" unicode="&#xe615;" 
d="M794 495q0 80 -39.5 148.5t-107.5 108t-148 39.5q-122 0 -208 -87t-86 -209q0 -124 88 -211q87 -84 206 -85q122 0 208.5 87t86.5 209zM256 495q0 101 71 172.5t172 71.5q40 0 77 -12t67 -35t52.5 -53t34.5 -67t12 -77q0 -101 -71 -172.5t-172 -71.5t-172 71.5t-71 172.5
zM0 -186v-26h26h460h512h26v26q0 85 -41.5 165.5t-111 140t-164 95.5t-195.5 36q-25 0 -49 -2q-7 -1 6 -9q17 -11 17 -19q8 1 13 -10.5t13 -11.5q91 0 176.5 -32t147.5 -85t99.5 -123.5t37.5 -144.5l25 25h-512h-460l25 -25q0 102 60 190t164 141q6 3 10 8.5t4.5 12
t-2.5 13.5q-5 10 -15 13t-20 -1q-116 -59 -184 -159.5t-68 -217.5z" />
    <glyph glyph-name="uniE616" unicode="&#xe616;" 
d="M853 279q9 0 15.5 6t6.5 15q0 6 -3 11t-8 7.5t-11 2.5h-682q-5 0 -9 -1.5t-6.5 -4.5t-4.5 -7t-2 -8q0 -6 3 -11t8 -7.5t11 -2.5h682zM491 -41q0 -9 6 -15.5t15 -6.5t15 6.5t6 15.5v682q0 5 -1.5 9t-4.5 6.5t-7 4.5t-8 2q-9 0 -15 -6.5t-6 -15.5v-682z" />
    <glyph glyph-name="uniE617" unicode="&#xe617;" 
d="M1024 300q0 139 -68.5 257t-186.5 186.5t-257 68.5t-257 -68.5t-186.5 -186.5t-68.5 -257t68.5 -257t186.5 -186.5t257 -68.5q172 0 309 104q8 6 9.5 16t-4.5 18t-16 9.5t-18 -4.5q-60 -46 -131.5 -70t-148.5 -24q-94 0 -180 36.5t-148 98.5t-98.5 148t-36.5 180
q0 47 9.5 93t27 87t42.5 78.5t56.5 69t69 56.5t78.5 42.5t87 27t93 9.5t93 -9.5t87 -27t78.5 -42.5t69 -56.5t56.5 -69t42.5 -78.5t27 -87t9.5 -93q0 -144 -81 -262q-3 -5 -3.5 -11.5t2 -12.5t8.5 -9q8 -6 18 -4.5t16 10.5q89 130 89 289zM488 202q0 -10 7 -17t17 -7
q2 0 4.5 0.5t5 1.5t4.5 2.5t3.5 3t3 3.5t2 4t1 4.5t0.5 4.5v366q0 10 -7 17.5t-17 7.5t-17 -7.5t-7 -17.5v-366zM482 340q-7 8 -17 8.5t-17.5 -6t-8.5 -16.5t6 -18l171 -195q6 -7 16 -8t18 6t8.5 17t-6.5 17z" />
    <glyph glyph-name="uniE618" unicode="&#xe618;" 
d="M0 377v-175q0 -26 18.5 -45t45.5 -19h165l-15 6l255 -256q23 -22 45 -13t22 41v747q0 32 -22 41t-45 -14l-255 -256l15 7h-165q-27 0 -45.5 -19t-18.5 -45zM229 398h9l6 6l255 256q3 3 5 4q-1 -1 -3 -0.5t-4 0.5q-4 2 -5 5q1 -1 1 -3v-3v-747q0 -4 -1 -6q1 3 5 4.5t7 0.5
q-2 0 -5 3l-255 256l-6 7h-9h-165q-4 0 -7 1t-5.5 3t-4.5 4.5t-3 6t-1 6.5v175q0 9 6 15t15 6h165zM821 276q0 26 -5.5 50t-15.5 45.5t-23.5 40t-31 33.5t-37.5 25.5t-43 16.5t-47 6q-3 0 -5.5 -1t-5 -2.5t-4.5 -3.5t-3.5 -4t-2 -5t-0.5 -6q0 -9 6 -15t15 -6q66 0 113 -51
t47 -123t-47 -122.5t-113 -50.5q-6 0 -11 -3t-7.5 -8t-2.5 -11q0 -9 6 -15t15 -6q84 0 143.5 63.5t59.5 152.5zM1003 285q0 117 -67.5 215t-179.5 147q-8 3 -16 0t-11.5 -11t-0.5 -16.5t11 -11.5q67 -29 117 -78t77 -112.5t27 -132.5q0 -66 -24.5 -127t-70 -109t-107.5 -79
q-4 -2 -6.5 -5t-4 -7t-1 -8t2.5 -8q2 -5 7 -8.5t10.5 -3.5t10.5 2q104 52 165 146.5t61 206.5z" />
    <glyph glyph-name="uniE619" unicode="&#xe619;" 
d="M128 -117q-32 0 -54.5 22.5t-22.5 55.5v700l-25 -26h870q32 0 54.5 -23t22.5 -55v-584q0 -10 7.5 -18t18 -8t18 8t7.5 18v584q0 54 -37.5 92t-90.5 38h-870q-11 0 -18.5 -7.5t-7.5 -18.5v-700q0 -36 17 -66t46.5 -47t64.5 -17h755q11 0 18.5 7.5t7.5 18.5q0 7 -3.5 13
t-9.5 9.5t-13 3.5h-755zM282 557q0 -7 3 -13t9 -9.5t13 -3.5q5 0 10 2t8.5 5.5t5.5 8.5t2 10v195q0 5 -2 10t-5.5 8.5t-8.5 5.5t-10 2q-10 0 -17.5 -8t-7.5 -18v-195zM717 570q0 -11 7.5 -18.5t18 -7.5t18 7.5t7.5 18.5v195q0 10 -7.5 18t-18 8t-18 -8t-7.5 -18v-195z
M333 401q7 0 13 3.5t9 9.5t3 13t-3 13t-9 9.5t-13 3.5h-141q-11 0 -18.5 -7.5t-7.5 -18t7.5 -18.5t18.5 -8h141zM614 401q7 0 13 3.5t9.5 9.5t3.5 13q0 11 -7.5 18.5t-18.5 7.5h-140q-11 0 -18.5 -7.5t-7.5 -18t7.5 -18.5t18.5 -8h140zM870 401q7 0 13 3.5t9.5 9.5t3.5 13
q0 11 -7.5 18.5t-18.5 7.5h-140q-11 0 -18.5 -7.5t-7.5 -18t7.5 -18.5t18.5 -8h140zM333 246q10 0 17.5 7.5t7.5 18.5q0 5 -2 10t-5.5 8.5t-8 5.5t-9.5 2h-141q-11 0 -18.5 -8t-7.5 -18q0 -6 2 -10.5t5.5 -8t8.5 -5.5t10 -2h141zM614 246q11 0 18.5 7.5t7.5 18t-7.5 18.5
t-18.5 8h-140q-11 0 -18.5 -8t-7.5 -18q0 -7 3.5 -13t9.5 -9.5t13 -3.5h140zM870 246q11 0 18.5 7.5t7.5 18t-7.5 18.5t-18.5 8h-140q-11 0 -18.5 -8t-7.5 -18q0 -7 3.5 -13t9.5 -9.5t13 -3.5h140zM333 90q10 0 17.5 7.5t7.5 18.5t-7.5 18.5t-17.5 7.5h-141q-7 0 -13 -3.5
t-9.5 -9.5t-3.5 -13q0 -11 7.5 -18.5t18.5 -7.5h141zM614 90q11 0 18.5 7.5t7.5 18.5t-7.5 18.5t-18.5 7.5h-140q-11 0 -18.5 -7.5t-7.5 -18.5t7.5 -18.5t18.5 -7.5h140zM870 90q11 0 18.5 7.5t7.5 18.5t-7.5 18.5t-18.5 7.5h-140q-11 0 -18.5 -7.5t-7.5 -18.5t7.5 -18.5
t18.5 -7.5h140z" />
    <glyph glyph-name="uniE61A" unicode="&#xe61a;" 
d="M472 693l-379 -399q-72 -75 -71.5 -181.5t74.5 -180.5l3 -4q74 -75 178.5 -75.5t178.5 73.5l500 499q29 29 44.5 67t16 76.5t-14 77t-42.5 67.5l-19 -17l-18 -18l4 -4l19 17l18 18q-38 40 -89 54t-102 -0.5t-89 -55.5l-474 -508q-14 -15 -21 -34.5t-6.5 -38.5t9 -37.5
t23.5 -32.5l11 -11q31 -29 73 -27.5t70 32.5l369 395q7 8 7 18.5t-8 17.5q-4 3 -8.5 5t-9.5 2t-9.5 -2.5t-8.5 -5.5l-369 -396q-9 -10 -22 -14t-26 -1t-23 13l-12 11q-15 14 -15.5 35t13.5 36l474 509q43 45 103 45.5t103 -44.5q11 -11 25 -7t18 16.5t-6 25.5l-4 4
q-11 12 -25 7.5t-18 -17t6 -25.5q29 -29 38.5 -69t-1.5 -79.5t-40 -68.5l-500 -499q-59 -59 -142.5 -58.5t-142.5 59.5l-3 4q-59 60 -60 145.5t57 146.5l380 399q7 7 7 17.5t-8 18.5q-3 2 -6.5 4t-7.5 2.5t-8 0t-7.5 -2.5t-6.5 -5z" />
    <glyph glyph-name="uniE61B" unicode="&#xe61b;" horiz-adv-x="1028" 
d="M965 270q-5 100 -51 187.5t-124 147.5t-175 83q-10 2 -18.5 -3.5t-11 -15.5t3 -19t15.5 -11q131 -30 217.5 -133.5t93.5 -237.5q1 -6 3 -10.5t5.5 -7.5t8.5 -4.5t10 -1.5q10 0 17 8t6 18zM387 681q-155 -45 -247 -179q-79 -116 -79 -255q0 -67 19 -129q2 -7 7 -11.5
t11 -6t13 0.5q10 3 15 12t2 19q-17 56 -17 115q0 134 81 241.5t209 144.5q10 3 15 12t2 19t-12 15t-19 2zM196 -76q64 -62 146 -96t172 -34q96 0 183.5 39t152.5 111q2 2 3 4l2 6q1 2 1 5t-0.5 5.5t-1.5 5t-2.5 5t-3.5 4.5q-8 7 -18.5 6.5t-17.5 -8.5q-28 -31 -62 -56
t-72 -42t-79.5 -26t-84.5 -9q-80 0 -153 30t-129 86q-8 7 -18.5 7t-17.5 -8q-5 -5 -6.5 -11t0.5 -12.5t6 -11.5zM498 527q16 0 30.5 3.5t27.5 10t24.5 15.5t20.5 20.5t15.5 24.5t10 27.5t3.5 30.5q0 36 -17.5 66t-48 48t-66.5 18q-54 0 -93 -39t-39 -93.5t39 -93t93 -38.5z
M498 577q-22 0 -41 11t-30 30t-11 41q0 34 24 58t58 24t58 -24t24 -58t-24 -58t-58 -24zM132 -114q55 0 93.5 38.5t38.5 93t-38.5 93.5t-93.5 39t-93.5 -39t-38.5 -93.5t38.5 -93t93.5 -38.5zM132 -64q-47 0 -71 41q-11 19 -11 41q0 13 4 25.5t12 22.5t18 17.5t22.5 11.5
t25.5 4q34 0 58 -24t24 -57.5t-24 -57.5t-58 -24zM895 -84q55 0 93.5 39t38.5 93q0 36 -17.5 66.5t-48 48t-66.5 17.5q-54 0 -93 -38.5t-39 -93t39 -93.5t93 -39zM895 -34q-34 0 -58 24t-24 58t24 58t58 24t58 -24t24 -58t-24 -58t-58 -24z" />
    <glyph glyph-name="uniE61C" unicode="&#xe61c;" 
d="M66 658h798q29 0 49.5 -20.5t20.5 -49.5v-540l24 24h-798q-29 0 -49.5 20.5t-20.5 49.5v540zM66 705h-23v-23v-540q0 -61 50 -96q31 -21 67 -21h798h23v23v540q0 49 -34 83t-83 34h-798zM408 46l-70 -164q-4 -9 -0.5 -18t12.5 -13q6 -3 12 -2t11.5 4.5t7.5 9.5l70 164
q4 9 0.5 18t-12.5 13t-18 0.5t-13 -12.5zM587 -37l82 -105q6 -8 16 -9t17.5 5t8.5 15.5t-4 17.5l-83 105q-3 4 -7 6.5t-8.5 3t-9 -1t-8.5 -4.5q-7 -6 -8.5 -15.5t4.5 -17.5zM242 -163h563q10 0 17 7t7 16.5t-7 16.5t-17 7h-563q-10 0 -16.5 -7t-6.5 -16q0 -7 3 -12.5
t8.5 -8.5t11.5 -3z" />
    <glyph glyph-name="uniE61D" unicode="&#xe61d;" 
d="M151 256v-328q0 -27 19.5 -46t46.5 -19h568q6 0 12.5 1t12.5 3.5t11 6t9.5 8t8 10t6 11t4 12t1.5 13.5v317h-44v-317q0 -6 -2.5 -11t-7.5 -8t-11 -3h-568q-9 0 -15.5 6.5t-6.5 15.5v328h-44zM544 -115v622h-43v-622h43zM86 485h742q13 0 25.5 -5t21 -14t14 -21t5.5 -25
v-153l21 22h-742q-27 0 -46 19t-19 46v153zM86 529h-22v-22v-153q0 -45 32 -77t77 -32h742h22v22v153q0 45 -32 77t-77 32h-742zM457 551h131l-22 21v-65l22 22h-131l22 -22v65zM457 594h-22v-22v-65v-22h22h131h22v22v65v22h-22h-131zM552 561q1 2 5 7q1 3 3 5.5t3.5 5
t3.5 5t4 5.5q23 34 45 63q13 16 24 30q20 24 36.5 39t20.5 15q8 0 19 -3t22 -8t22.5 -12.5t22.5 -16.5t21 -18.5t17 -19.5q5 -5 2 -19.5t-12 -33.5q-4 -8 -1 -16.5t11.5 -12.5t17 -1t11.5 11q31 65 6 98q-29 39 -75.5 67.5t-83.5 28.5q-9 0 -19 -4.5t-21.5 -14t-23.5 -22
t-27 -29.5q-12 -15 -25 -32q-22 -29 -46 -64q-8 -11 -15 -22l-5 -8q-5 -7 -3 -16t9 -14q5 -3 11 -3.5t11 2.5t9 8zM538 584l-2 2l-1 3q-1 2 -2 3q-7 11 -15 22q-11 17 -23 33t-23 31q-7 9 -13 16.5t-12 15.5q-30 36 -51.5 53t-39.5 17t-40.5 -8t-43.5 -21t-41 -30.5
t-34 -36.5q-25 -33 5 -97q5 -10 10.5 -20t12.5 -21q12 -19 26 -38q7 -9 12 -15l33 28q-4 5 -10 14q-13 17 -24 34q-13 20 -20 37q-6 13 -9.5 23.5t-3.5 17.5t3 11q7 10 17 19.5t21 18.5t22.5 16.5t22.5 12.5t22 8t19 3q2 0 7.5 -4t12.5 -10.5t17 -17t20 -22.5l8 -10l8 -10
l8 -10q22 -29 45 -63q2 -3 4 -5.5t3.5 -5t3.5 -5t3 -5.5q4 -5 5 -7z" />
    <glyph glyph-name="uniE61E" unicode="&#xe61e;" 
d="M680 -151q-9 0 -23 -1q-29 0 -57 -1q-13 0 -25.5 -0.5t-24.5 -0.5h-24q-67 -1 -105 -1q-7 0 -13.5 0.5t-11.5 0.5h-8q-5 1 -7 1h1l1 -1q14 -6 14 -21v93v77v42q0 11 -8 18q-4 3 -9 8q-12 11 -25 24q-40 40 -74 81q-68 84 -92 154q-4 12 -6.5 23t-4 21.5t-1.5 20.5
q0 72 28 138t75.5 113.5t113 75.5t138 28t138 -28t113 -75.5t75.5 -113.5t28 -138q0 -13 -2.5 -27.5t-8.5 -30.5q-25 -73 -105 -161q-8 -8 -16 -17t-16 -17t-16.5 -16t-16.5 -15.5t-17 -15.5q-14 -12 -27 -23q-3 -3 -6 -5t-4 -3q-9 -7 -9 -19v-114l24 24h-281
q-10 0 -17.5 -7t-7.5 -17q0 -7 3.5 -12.5t9 -9t12.5 -3.5h281q7 0 12.5 3.5t8.5 9t3 12.5v114l-9 -20q4 4 11 9l6 6l8 6q3 3 7 6t7 7q23 20 44.5 41t41.5 43q43 47 72 91.5t44 86.5q13 39 13 74q0 82 -32 157t-86 129t-128.5 86t-157 32t-157 -32t-128.5 -86t-86 -129
t-32 -157q0 -10 1 -19.5t3 -20t4.5 -20.5t6.5 -21q27 -78 101 -169q35 -43 77 -85l25 -25q7 -6 10 -9l-8 19v-42v-77v-93q0 -17 16 -24q1 0 3 -0.5t4 -1.5q3 0 6 -0.5t7 -0.5q6 -1 15.5 -1.5t20.5 -0.5q39 0 107 1q34 0 74 1q29 1 57 2h14h9q10 1 17 8t7 17.5t-7.5 17
t-17.5 6.5zM380 260l122 -122q7 -7 16.5 -7.5t17.5 6.5l122 110q7 6 8 16.5t-6 18t-17 8t-18 -6.5l-122 -110l34 -1l-123 122q-7 8 -17 8t-17 -7.5t-7 -17.5t7 -17zM495 143v-208h49v208h-49z" />
    <glyph glyph-name="uniE61F" unicode="&#xe61f;" 
d="M90 663l214 -203q9 -8 20 -8h408q12 0 20.5 8.5t8.5 20.5t-8.5 20.5t-20.5 8.5h-408l20 -8l-214 203q-9 8 -21 8t-21 -9q-4 -4 -6 -9.5t-1.5 -11t2.5 -11t7 -9.5zM102 190l215 -217q5 -4 10 -6t11 -2t11 2t10 6q8 9 8 21t-8 21l-215 216q-9 9 -21 9t-20.5 -8.5
t-8.5 -20.5t8 -21zM187 580l-159 -578q-1 -5 -1 -10.5t3 -10.5t6.5 -8.5t8.5 -5.5t11 -2h925q13 0 21.5 8.5t8.5 21.5q0 7 -4 14t-11 11t-15 4h-925l28 -37l159 578q2 8 0 15t-7.5 13t-12.5 8q-12 3 -22.5 -3t-13.5 -18zM43 -143h348q12 0 21 8.5t9 21t-9 21t-21 8.5h-348
q-12 0 -21 -8.5t-9 -21.5q0 -6 2.5 -11t6.5 -9t9.5 -6.5t11.5 -2.5z" />
    <glyph glyph-name="uniE620" unicode="&#xe620;" 
d="M523 -31q87 0 147.5 43t60.5 100.5t-60.5 100.5t-147.5 43q-105 0 -168 -59q-41 -38 -41 -85q0 -11 3 -22t8 -21.5t12 -20.5t16.5 -19t21 -17t24 -14.5t27 -12t30 -9t32.5 -5.5t35 -2zM523 -81q-107 0 -183 56.5t-76 137t76 137t183 56.5q52 0 100 -15t82.5 -41t55 -62
t20.5 -76q0 -80 -75.5 -136.5t-182.5 -56.5zM329 314q37 0 63 26t26 63q0 25 -12 45.5t-32.5 32.5t-44.5 12q-37 0 -63.5 -26.5t-26.5 -63.5q0 -24 12 -44.5t32.5 -32.5t45.5 -12zM329 364q-17 0 -28.5 11.5t-11.5 27.5q0 8 3 15.5t8.5 13t13 8.5t15.5 3q16 0 27.5 -11.5
t11.5 -28t-11.5 -28t-27.5 -11.5zM717 314q18 0 34.5 7t28.5 19t19 28.5t7 34.5q0 37 -26 63.5t-63 26.5q-25 0 -45.5 -12t-32.5 -32.5t-12 -45.5q0 -37 26 -63t64 -26zM717 364q-17 0 -28.5 11.5t-11.5 27.5q0 8 3 15.5t8.5 13t13 8.5t15.5 3t15 -3t12.5 -8.5t8.5 -13
t3 -15.5q0 -5 -1.5 -10t-4 -9.5t-6 -8t-8 -6t-9.5 -4t-10 -1.5zM932 45q68 105 68 229q0 91 -38 173.5t-102 142t-152 94.5t-185 35q-182 0 -317 -112q-129 -107 -155 -265q-6 -34 -6 -68q0 -61 17.5 -118.5t48 -106.5t74.5 -90t96.5 -69.5t114.5 -44.5t127 -16
q91 0 174.5 30.5t149.5 87.5q8 7 8.5 17.5t-5.5 18.5q-5 5 -11 7t-13 1t-12 -6q-123 -106 -291 -106t-291 106q-118 100 -134 247q-3 21 -3 42q0 107 57 198t155.5 144t215 53t215 -53t155.5 -144t57 -198q0 -109 -60 -202q-4 -6 -4 -12.5t3 -12.5t8 -10q9 -5 19.5 -3
t15.5 11zM933 471q32 25 49.5 62t17.5 78q0 36 -14 69.5t-38 57.5t-57.5 38.5t-70.5 14.5q-54 0 -99 -30t-66 -80l46 -20q10 24 28 42t41.5 28t49.5 10q54 0 92 -38t38 -92q0 -7 -0.5 -13.5t-2 -12.5t-3.5 -12.5t-4.5 -12t-5.5 -11.5t-6.5 -11t-7.5 -10t-8.5 -9.5t-9.5 -8.5
zM132 510q-48 39 -48 101q0 54 38 92t91 38q40 0 72.5 -22t47.5 -58l46 20q-21 50 -66 80t-100 30q-74 0 -126.5 -53t-52.5 -127q0 -41 17.5 -78t48.5 -62zM535 120q28 0 48.5 20t20.5 49q0 14 -5.5 27t-15 22t-22 14.5t-26.5 5.5q-29 0 -49.5 -20t-20.5 -49q0 -19 9.5 -35
t25.5 -25t35 -9zM535 170q-8 0 -14 5.5t-6 13.5t6 13.5t13.5 5.5t13.5 -5.5t6 -13.5q0 -4 -1.5 -7.5t-4.5 -6t-6.5 -4t-6.5 -1.5z" />
    <glyph glyph-name="uniE621" unicode="&#xe621;" horiz-adv-x="1028" 
d="M793 685q-7 10 -19 10h-248h-51q-2 0 -2.5 -2.5t0 -7t1.5 -9t2.5 -10t3 -10t3 -8.5t1.5 -5t5 -0.5t9.5 1t6.5 -0.5l162 -265l-2 21l-186 -489q-2 -3 -3 -6.5t-1 -6.5q-2 -18 13 -27q14 -8 29 1q5 4 10 9l420 407q7 7 7 17t-7 17.5t-17 7.5t-17 -7l-421 -408q6 7 21 -2.5
t11 -18.5l187 489q2 5 1.5 10.5t-3.5 9.5l-162 280l-21 -36h248l-19 10l204 -269q4 -5 10 -7.5t12.5 -2t11.5 4.5q8 6 9.5 16t-4.5 18zM773 637l-97 -226l-14 -34h37h292v48h-292l22 -34l97 227zM451 682l-161 -280l-6 -9l4 -11l174 -488q-2 4 1.5 9.5t9.5 8.5t12 4t9 -2
l-445 493l2 -31l194 280l-20 -10h247zM494 658l21 37h-43h-247h-13l-7 -11l-194 -280l-11 -16l13 -14l445 -493q6 -6 11 -9q15 -10 29 -1.5t13 26.5q-1 6 -4 13l-173 488l-2 -20zM192 618l97 -227l22 34h-259v-48h259h37l-15 34l-97 226zM310 389h656q11 0 18 7.5t7 17.5
t-7 17t-18 7h-656q-10 0 -17 -7t-7 -17t7 -17.5t17 -7.5z" />
    <glyph glyph-name="uniE622" unicode="&#xe622;" 
d="M933 -79q-6 0 -17 1t-45 7t-68 16q36 32 65 69.5t49.5 80.5t31.5 91.5t11 99.5q0 73 -22.5 142t-64.5 124t-97 97t-123 64.5t-141 22.5q-121 0 -224.5 -60t-163.5 -163.5t-60 -224.5q0 -94 38.5 -180.5t107.5 -151.5v0q6 -6 15 -6q5 0 9.5 1.5t7 4.5t4.5 7t2 9
q-1 10 -7 16q-64 59 -98 136.5t-34 163.5q0 109 54 202t147 147t202 54t202 -54t147 -147t54 -202q0 -65 -20.5 -126t-57 -111.5t-85.5 -87.5q-9 4 -52 25q-59 32 -128 41.5t-126 -3t-91 -40.5q-42 -37 -33 -72q8 -37 60 -56q31 -9 64 -13.5t66 -4.5q138 0 251 74
q88 -32 172 -38q25 0 25 22q-4 23 -27 23zM512 -115q-56 0 -116 18q-26 7 -30 22q0 3 1 6t3.5 6.5t6 7.5t7.5 7q20 16 56.5 26t80.5 10q85 0 159 -40l27 -14q-92 -49 -195 -49z" />
    <glyph glyph-name="uniE623" unicode="&#xe623;" 
d="M96 470q107 -372 246 -568l31 -40q-35 56 -44 159q-16 165 37 306q-35 31 -75.5 56.5t-73.5 41t-61.5 26.5t-43.5 15zM154 410q95 -38 167 -95q-38 -116 -34 -246q-20 42 -40.5 91t-38 95t-30 82.5t-24.5 72.5zM643 597q-284 -221 -251 -575q9 -97 34 -143.5t55 -46.5
h-16q47 0 96.5 46.5t92 126.5t82 174t72.5 200.5t56.5 193t41.5 165.5q-145 -50 -263 -141zM480 -207q-12 1 -24 4.5t-29 17.5t-30.5 37t-25.5 66t-18 100q-8 96 6 183t43.5 153.5t74 126t91 101.5t100.5 78t95.5 57.5t83 38.5t57 22t23.5 7l31 8l-7 -31q-52 -240 -134 -479
q-168 -490 -335 -490h-2z" />
    <glyph glyph-name="uniE624" unicode="&#xe624;" 
d="M910 393q-5 0 -10 3t-8 8t-3 10v259q0 13 -9.5 22.5t-22.5 9.5q-236 0 -258 -1q-3 0 -5.5 0.5t-5 1.5t-4.5 3t-3.5 4t-2.5 4.5t-2 4.5q-1 9 4 16t14 9q6 1 263 1q20 0 37.5 -10t27.5 -27.5t10 -37.5v-259q0 -3 -1 -6.5t-3 -6t-5 -4.5t-6 -3t-7 -1zM85 393q-8 0 -14.5 6
t-6.5 15v259q0 20 10 37.5t27.5 27.5t37.5 10h43h84q56 0 95 -0.5t41 -0.5q9 -2 14 -9t4 -16q-2 -8 -8.5 -13t-14.5 -5q-22 1 -258 1q-13 0 -22.5 -9.5t-9.5 -22.5v-259q0 -3 -1 -6.5t-3 -6t-4.5 -4.5t-6 -3t-7.5 -1zM857 -162h-13h-28h-42h-47q-26 0 -48 0.5t-41 0.5h-32
h-12q-9 2 -14 9t-4 16q2 8 8.5 13t14.5 5q6 0 70 -0.5t119 -0.5h69q13 0 22.5 9.5t9.5 22.5v259q0 6 3 11t8 7.5t10 2.5q9 0 15.5 -6t6.5 -15v-259q0 -31 -22 -53t-53 -22zM139 -162q-20 0 -37.5 10t-27.5 27.5t-10 37.5v259q0 3 1 6.5t3 6t4.5 4.5t6 3t6.5 1q9 0 15.5 -6
t6.5 -15v-259q0 -13 9.5 -22.5t22.5 -9.5q236 0 258 1q8 0 14.5 -5t8.5 -13v-4q0 -3 -1 -5.5t-2 -4.5t-2.5 -4t-3.5 -3t-4.5 -2t-4.5 -2q-6 -1 -263 -1zM984 278h-941q-9 0 -15.5 6.5t-6.5 15.5t6.5 15t15.5 6h941q8 0 14.5 -6t6.5 -15t-6.5 -15.5t-14.5 -6.5z" />
    <glyph glyph-name="uniE625" unicode="&#xe625;" 
d="M533 -187h-3h-3q-49 2 -76 33.5t-32 64.5q-2 8 3 15t13 8.5t15 -3.5t8 -13q1 -1 1 -2.5t1 -5t2.5 -7t4 -8.5t5.5 -9.5t7 -9t9 -8.5t11 -7t13.5 -5t16.5 -3q16 -1 29.5 5.5t20.5 15t13 20t7 16.5t2 8q2 8 9 13t15 3t12.5 -8.5t3.5 -15.5q-2 -11 -7 -23t-14 -25.5t-21 -24
t-29 -17.5t-37 -7zM83 0l2 -2q4 -5 18 -5h815q3 0 6 0.5t5 1t3 1.5h1l-1 3v41l1 2q0 3 -0.5 6t-4 11t-9.5 17t-18.5 23.5t-29.5 30.5q-61 57 -100.5 184t-39.5 242q0 32 -20 57t-45 38.5t-56.5 22.5t-46 11t-20.5 2h-72q-7 -1 -17 -2.5t-34.5 -6.5t-45.5 -15t-42.5 -23.5
t-34.5 -35.5t-13 -48q0 -110 -35.5 -238.5t-99.5 -187.5q-64 -60 -66 -90l1 -1zM918 -47h-815q-33 0 -49 18q-12 15 -11 33v29q-7 46 79 126q53 50 87.5 169t34.5 228q0 24 7.5 45.5t19.5 37t29.5 29t34.5 22t37 16t35 11t30.5 6.5t22 3.5t10.5 1.5h74q7 -1 17 -2t33 -6
t44.5 -12.5t47 -21t43.5 -30.5t30.5 -43t12.5 -57q0 -107 36 -226.5t91 -170.5q86 -79 73 -127v-26q4 -19 -7 -34q-14 -19 -47 -19zM502 728zM460 728q0 11 5.5 20.5t15 15t21.5 5.5q17 0 29.5 -12t12.5 -29q0 -9 -3.5 -16.5t-9 -13.5t-13.5 -9t-16 -3q-17 0 -29.5 12
t-12.5 30z" />
    <glyph glyph-name="uniE626" unicode="&#xe626;" 
d="M66 426q-9 0 -15.5 6.5t-6.5 15.5v256q0 8 6.5 14.5t15.5 6.5q6 0 10.5 -3t7.5 -8t3 -10v-256q0 -9 -6 -15.5t-15 -6.5zM300 426h-234q-9 0 -15.5 6.5t-6.5 15t6.5 15t15.5 6.5h234q9 0 15.5 -6.5t6.5 -15t-6.5 -15t-15.5 -6.5zM514 192q-3 0 -6 0.5t-5 2t-4 3.5t-3.5 4
t-2.5 5t-1 6v384q0 9 6.5 15t15.5 6t15 -6t6 -15v-384q0 -9 -6 -15t-15 -6zM635 127q-2 0 -4.5 0.5t-4.5 1.5t-4 2.5t-3 2.5l-186 213q-6 6 -5 15t7.5 15t15.5 5t14 -7l186 -213q4 -4 5 -9.5t-1 -11t-6 -9.5q-3 -2 -6.5 -3.5t-7.5 -1.5zM513.5 -171q-95.5 0 -182 37
t-149.5 100t-100.5 150t-37.5 182q0 5 2 8.5t5 6.5t6.5 5t8.5 2q9 0 15 -6.5t6 -15.5q0 -115 57 -213.5t155.5 -155.5t214 -57t214 57t155.5 155.5t57 214t-57 214t-155.5 155.5t-213.5 57q-130 0 -237.5 -72t-157.5 -192q-3 -8 -11 -11.5t-17 -0.5q-5 2 -8.5 7t-4 10
t1.5 11q27 66 71.5 120t101 91.5t123.5 58.5t138 21q76 0 147.5 -24t129.5 -67.5t101.5 -101t67 -129t23.5 -148.5q0 -95 -37 -182t-100 -150t-150 -100t-182.5 -37z" />
    <glyph glyph-name="uniE627" unicode="&#xe627;" horiz-adv-x="1025" 
d="M331.5 480.5q-8.5 -8.5 -8.5 -20t9 -20.5l321 -321q9 -9 20.5 -9t20.5 8q4 5 6 10t2 10.5t-2 11t-6 9.5l-322 322q-9 8 -20.5 8t-20 -8.5zM96 752l-36 -36q-60 -60 -60 -145t60 -145l127 -127q46 -46 110.5 -56.5t120.5 16.5q1 0 1 0.5t1 0.5h1q4 2 7 6q9 8 9 20t-9 20
q-4 5 -10 7t-11.5 1.5t-11.5 -2.5q-42 -20 -90 -12t-82 43l-120 119q-45 45 -45 109t45 109l29 29q45 45 109 45t109 -45l119 -120q35 -35 43 -83.5t-13 -91.5v0q-3 -7 -1.5 -16t7.5 -15q9 -8 21 -8t20 8q4 4 6 8q28 57 18 122t-57 112l-127 127q-60 60 -145 60t-145 -60z
M963 -115l-36 -36q-60 -60 -144.5 -60t-144.5 60l-127 126q-47 47 -57.5 111.5t17.5 120.5v1h1v2t1 2t2 2.5t2 2.5q2 2 4 3l4 2l4 2q2 1 4 1h5h4q2 0 4 -1l4 -2l4 -2q2 -1 4 -3q6 -7 7.5 -16t-2.5 -17q-10 -21 -12.5 -44.5t1 -45.5t14.5 -43.5t28 -38.5l120 -120
q45 -45 108.5 -45t108.5 45l29 29q45 45 45 108.5t-45 108.5l-119 120q-35 35 -84 43t-91 -13v0q-8 -3 -16.5 -1.5t-14.5 7.5q-9 8 -9 20t9 21q4 3 7 5q29 14 60.5 18.5t62 0t59.5 -19t53 -38.5l126 -127q60 -60 60 -144.5t-60 -144.5z" />
    <glyph glyph-name="uniE628" unicode="&#xe628;" 
d="M996 -27h-100v483q0 12 -8.5 20.5t-20 8.5t-20 -8.5t-8.5 -20.5v-483h-614l705 705q4 3 6 7.5t2.5 8.5t0 8.5t-2.5 8.5t-6 7q-5 6 -12.5 8t-14.5 0t-13 -8l-705 -705v614h469q12 0 20.5 8.5t8.5 20.5q0 7 -4 13.5t-10.5 10.5t-14.5 4h-469v100q0 11 -8.5 19.5t-20 8.5
t-20 -8.5t-8.5 -19.5v-100h-100q-11 0 -19.5 -8.5t-8.5 -20t8.5 -20t19.5 -8.5h100v-683q0 -7 4 -13.5t10.5 -10.5t13.5 -4h683v-100q0 -7 4 -13.5t10.5 -10.5t14 -4t14 4t10.5 10.5t4 13.5v100h100q11 0 19.5 8.5t8.5 20t-8.5 20t-19.5 8.5z" />
    <glyph glyph-name="uniE629" unicode="&#xe629;" 
d="M608 519q3 0 5.5 0.5t4.5 1.5t4 3l4 2q2 2 3.5 4t2.5 4.5t1.5 5t0.5 5.5q0 11 -7.5 18.5t-18.5 7.5h-141q-10 0 -17.5 -8t-7.5 -18.5t7.5 -18t17.5 -7.5h141zM864 519q3 0 5.5 0.5t4.5 1.5t4 3l4 2q2 2 3.5 4t2.5 4.5t1.5 5t0.5 5.5q0 11 -7.5 18.5t-18.5 7.5h-141
q-10 0 -17.5 -8t-7.5 -18.5t7.5 -18t17.5 -7.5h141zM608 363q11 0 18.5 7.5t7.5 18.5t-7.5 18.5t-18.5 7.5h-141q-10 0 -17.5 -7.5t-7.5 -18.5q0 -3 0.5 -6t1.5 -5.5t3 -4.5l4 -4q2 -2 4.5 -3t5.5 -2t6 -1h141zM864 363q11 0 18.5 7.5t7.5 18.5t-7.5 18.5t-18.5 7.5h-141
q-3 0 -6.5 -1t-6.5 -2.5t-5 -4t-4 -5.5t-2.5 -6t-0.5 -7q0 -7 3 -13t9 -9.5t13 -3.5h141zM608 207q3 0 5.5 1t4.5 1.5t4 2t4 3.5t3.5 4t2.5 4.5t1.5 5t0.5 4.5q0 11 -7.5 18.5t-18.5 7.5h-141q-7 0 -13 -3.5t-9 -9.5t-3 -13t3 -13t9 -9.5t13 -3.5h141zM864 207q3 0 6.5 1
t6.5 3t5 4t4 5t3 6.5t1 6.5q0 11 -7.5 18.5t-18.5 7.5h-141q-5 0 -9.5 -2t-8 -5.5t-5.5 -8t-2 -10.5q0 -10 7.5 -18t17.5 -8h141zM864 207zM608 52q11 0 18.5 7.5t7.5 18t-7.5 18.5t-18.5 8h-141q-4 0 -8 -1.5t-7 -4t-5.5 -5.5t-3.5 -7t-1 -8q0 -7 3 -13t9 -9.5t13 -3.5h141
zM864 52q11 0 18.5 7.5t7.5 18t-7.5 18.5t-18.5 8h-141q-5 0 -9.5 -2t-8 -5.5t-5.5 -8.5t-2 -10.5t2 -10t5.5 -8t8 -5.5t9.5 -2h141zM864 52zM352 519q5 0 10 2t8.5 5.5t5.5 8t2 10.5q0 3 -1 6t-2 5.5t-3 4.5l-4 4q-2 2 -4.5 3t-5.5 2t-6 1h-141q-7 0 -13 -3.5t-9 -9.5
t-3 -13q0 -11 7.5 -18.5t17.5 -7.5h141zM352 363q11 0 18.5 7.5t7.5 18.5t-7.5 18.5t-18.5 7.5h-141q-7 0 -13 -3.5t-9 -9.5t-3 -13q0 -5 2 -10t5.5 -8.5t8 -5.5t9.5 -2h141zM352 207q11 0 18.5 8t7.5 18q0 7 -3.5 13t-9.5 9.5t-13 3.5h-141q-10 0 -17.5 -7.5t-7.5 -18
t7.5 -18.5t17.5 -8h141zM608 207zM352 52q4 0 8 1t7 3.5t5.5 6t4 7t1.5 8.5q0 10 -7.5 18t-18.5 8h-141q-5 0 -9.5 -2t-8 -5.5t-5.5 -8.5t-2 -10q0 -11 7.5 -18.5t17.5 -7.5h141zM608 52zM882 748h-854h-28v-29v-722q0 -60 41.5 -102.5t100.5 -42.5h854h28v29v260
q0 6 -2.5 11.5t-6 9t-9 6t-10.5 2.5q-12 0 -20.5 -8.5t-8.5 -20.5v-231h-825q-35 0 -60 25.5t-25 61.5v693h825q35 0 60 -25.5t25 -61.5v-260q1 -7 4.5 -13.5t10 -10t14 -3.5t14 3.5t10.5 10t4 13.5v260q0 60 -41.5 102.5t-100.5 42.5z" />
    <glyph glyph-name="uniE62A" unicode="&#xe62a;" 
d="M501 -210q11 -4 22 0q2 1 4.5 2.5t4.5 3.5l159 159q5 6 7 13t0 14.5t-7 12.5q-8 9 -20 9t-20 -9l-111 -110v335q0 12 -8 20.5t-20 8.5q-8 0 -14.5 -4t-10 -10.5t-3.5 -14.5v-335l-111 110q-8 9 -20 9t-20 -8.5t-8 -20t8 -20.5l159 -159l2 -1l1 -1q4 -3 6 -4zM523 810
q-11 4 -22 0q-5 -2 -9 -6l-159 -159q-5 -6 -7 -13t0 -14.5t7 -12.5q8 -9 20 -9t20 9l111 110v-335q0 -6 2 -11.5t6 -9t9 -6t11 -2.5q12 0 20 8.5t8 20.5v335l111 -110q8 -9 20 -9t20 8.5t8 20.5t-8 20l-159 159h-1l-2 2q-4 3 -6 4zM1022 289q4 11 0 22q-2 5 -6 9l-159 159
q-4 4 -9.5 6t-11 2t-10.5 -2t-9 -6t-6.5 -9.5t-2.5 -10.5t2.5 -10.5t6.5 -9.5l110 -111h-335q-6 0 -11.5 -2t-9 -6t-6 -9t-2.5 -11q0 -12 8.5 -20t20.5 -8h335l-110 -111q-3 -2 -4.5 -5t-2.5 -6t-1.5 -6t0 -6t1.5 -6t2.5 -6t4.5 -5q8 -8 20 -8t20 8l159 159v1l2 2q3 4 4 6z
M2 311q-1 -4 -1.5 -7.5t0 -7t1.5 -7.5q1 -2 2.5 -4.5t3.5 -4.5l159 -159q9 -8 20.5 -8t20 8t8.5 20t-9 20l-110 111h335q12 0 20.5 8t8.5 20q0 8 -4 14.5t-10.5 10t-14.5 3.5h-335l110 111q9 8 9 20t-8.5 20t-20.5 8t-20 -8l-159 -159l-1 -2l-1 -1q-3 -4 -4 -6z" />
    <glyph glyph-name="uniE62B" unicode="&#xe62b;" 
d="M539 341q31 0 53.5 22t22.5 53t-22.5 53t-53.5 22t-53 -22t-22 -53t22 -53t53 -22zM539 391q-10 0 -17.5 7.5t-7.5 17.5q0 4 1 8t3.5 7t5.5 5t7 3.5t8 1.5q11 0 18 -7.5t7 -17.5q0 -7 -3 -12.5t-9 -9t-13 -3.5zM435 583q-141 -27 -232.5 -137.5t-91.5 -254.5
q0 -81 31.5 -155t85.5 -127.5t129 -85t157 -31.5q110 0 202.5 53.5t146.5 145.5t54 200q0 135 -85 243t-217 143l-13 -48q116 -31 190.5 -125.5t74.5 -212.5q0 -71 -28 -135.5t-75.5 -111.5t-112.5 -74.5t-137 -27.5q-96 0 -177.5 46.5t-128.5 127t-47 175.5
q0 126 80.5 222.5t203.5 120.5zM363 166q41 0 71 29.5t30 70.5q0 9 -2 18t-5 17t-7.5 15.5t-10 14t-12 12t-14 10t-15.5 7.5t-17 4.5t-18 1.5q-42 0 -71.5 -29t-29.5 -70.5t29.5 -71t71.5 -29.5zM363 216q-21 0 -36 14.5t-15 35.5t15 35.5t36 14.5t35.5 -14.5t14.5 -35.5
t-14.5 -35.5t-35.5 -14.5zM118 198q30 -28 84 -55q107 -53 232 -53q106 0 205 38q4 2 13.5 5.5t18 7t9.5 3.5q21 9 35 13q29 8 56 5q10 -1 18.5 5.5t9.5 16.5q1 5 -0.5 10t-4.5 8.5t-7.5 6t-9.5 3.5q-6 0 -11.5 0.5t-10.5 0.5t-11 -1h-10q-6 -1 -11.5 -2t-11 -2.5
t-10.5 -2.5l-6 -2q-3 -1 -6.5 -2t-6.5 -2t-6 -3l-8 -2q-3 -2 -7 -3q-1 -1 -9.5 -4t-17.5 -7t-13 -5q-48 -19 -91 -27t-96 -8q-39 0 -76 5.5t-70 16t-63 26.5q-16 7 -29.5 15.5t-25.5 16.5q-6 5 -10.5 8.5t-6.5 5.5q-7 7 -17.5 7t-18 -7.5t-7 -18t7.5 -17.5zM465 535v132v25
h-25h-72l25 -25v89l-25 -25h286l-26 25v-91l26 25l-64 2h-26v-25v-138h50v138l-26 -25l65 -2l26 -1v26v91v25h-25h-286h-25v-25v-89v-25h25h72l-25 25v-132h50z" />
    <glyph glyph-name="uniE62C" unicode="&#xe62c;" 
d="M335 628q91 2 135 -43q7 -6 12 -13t8 -15q1 -2 2 -4.5t1.5 -3.5t0.5 -2v6v-440q0 1 0.5 2.5t3 4t6.5 3.5q9 4 13 1l-16 -20l20 16q-3 5 -9 10t-15.5 11.5t-20.5 11.5q-58 29 -148 29t-141 -28q-16 -9 -25.5 -18.5t-14.5 -18.5l23 -11l-19 17q5 6 17 1q4 -2 7 -4t3.5 -4
t0.5 -3v300v140l-3 -13q3 5 9 13q13 17 29 31q53 46 121 44zM335 680q-44 0 -82.5 -14.5t-71.5 -42.5t-50 -58l-3 -5v-7v-140v-300q0 -28 21.5 -36.5t39.5 12.5l3 3l1 3q3 5 19 14q39 22 116 22q40 0 71.5 -6t53.5 -18q11 -5 18 -10t9 -8l2 -2l2 -2q21 -17 41 -8t20 36v440
l-1 5q-7 33 -38 64q-59 59 -171 58zM0 422v-478q0 -28 20.5 -36.5t40.5 9.5l2 2q4 5 13 13q19 16 43 30q77 45 173 45q94 0 156 -51q19 -16 33 -35q6 -9 9 -14q5 -10 15 -13t19.5 1.5t13 14.5t-1.5 19q-16 34 -55 66q-37 31 -84 47t-105 16q-110 0 -199 -52q-45 -26 -68 -53
l19 -17l-17 19q4 4 14 0q10 -5 10 -11v478q0 11 -7.5 18.5t-17.5 7.5q-7 0 -13 -3.5t-9.5 -9.5t-3.5 -13zM697 680q-57 1 -100 -14.5t-72 -43.5q-31 -31 -38 -64l-1 -5v-440q0 -9 3 -16.5t7.5 -12t10.5 -7.5t12.5 -3t14 2.5t13.5 8.5l2 2l2 2q6 8 27 18q47 24 125 24
q39 0 68.5 -6t48.5 -16q15 -9 18 -14l2 -3l2 -3q19 -21 40 -12.5t21 36.5v300v140v7l-3 5q-7 13 -19.5 28t-30.5 30q-32 28 -71 42.5t-83 14.5h1zM697 628q67 2 120 -44q16 -14 29 -31q7 -8 10 -13l-4 13v-140v-300q0 7 11 11q12 5 17 -1l-19 -17l23 11q-10 20 -40 37
q-12 7 -26.5 12t-32.5 8.5t-38.5 5.5t-43.5 2q-90 0 -148 -29q-32 -15 -45 -33l21 -16l-17 20q4 3 14 -1t10 -10v440l-1 -6q0 1 1 4t3 6q7 16 20 28q44 45 135 43h1zM973 422v-478q0 6 10 11q10 4 14 0l-17 -19l19 17q-23 27 -68 53q-89 52 -199 52q-113 0 -189 -66
q-20 -18 -33.5 -36t-20.5 -33q-5 -10 -1 -19.5t13.5 -14t19.5 -1t14 13.5q1 1 1.5 2.5t1.5 3t3 4t3 5.5q7 9 15 18.5t18 17.5q61 54 155 54q96 0 173 -45q24 -14 43 -30q9 -8 13 -13l2 -2q20 -18 40.5 -9.5t20.5 36.5v478q0 11 -7.5 18.5t-18 7.5t-18 -7.5t-7.5 -18.5z" />
    <glyph glyph-name="uniE62D" unicode="&#xe62d;" 
d="M508 672q-76 0 -145 -29.5t-119 -79.5t-79.5 -119t-29.5 -145q0 -102 50 -188t136 -136t187 -50q76 0 145 29.5t119 79.5t79.5 119.5t29.5 145.5t-29.5 145t-79.5 119t-119 79.5t-145 29.5zM508 -7q-127 0 -216 89.5t-89 216.5q0 83 40.5 153t111 111t153.5 41
q127 0 216 -89.5t89 -215.5q0 -128 -90 -217q-90 -88 -215 -89zM406 146l289 170l-289 135v-305z" />
    <glyph glyph-name="uniE62E" unicode="&#xe62e;" 
d="M398 484l-340 -317q-21 102 -17.5 169t38.5 148h319zM301 350l-16 -465q-91 62 -134 109.5t-76 129.5zM328 186l317 -340q-102 -21 -169 -17.5t-148 37.5v320zM462 89l465 -16q-62 -91 -109.5 -134t-129.5 -76zM626 116l340 317q21 -102 17.5 -169t-37.5 -148h-320z
M723 250l16 465q47 -31 76.5 -55t55 -52t43.5 -59t35 -73zM696 414l-317 340q102 21 169 17.5t148 -38.5v-319zM562 511l-465 16q62 91 109.5 134t129.5 76z" />
    <glyph glyph-name="uniE62F" unicode="&#xe62f;" 
d="M790 464q21 -82 22 -160q0 -15 -3 -29t-10 -28t-18 -24t-29 -16t-40 -4q-25 1 -42.5 10.5t-24.5 19.5t-9.5 23.5t-2.5 18.5t1 9q1 37 -3.5 70.5t-13.5 58t-20.5 45.5t-23 35t-21.5 23.5t-16 13.5l-6 5q-36 21 -58 48t-29 52t-5.5 52.5t8 47.5t16 40t14 26.5t7.5 10.5
q-2 -2 -5.5 -4.5t-13.5 -12.5t-19.5 -21t-21 -27t-20 -32.5t-15 -37.5t-8 -41.5t3.5 -44.5t17 -47q29 -53 26.5 -110t-21 -103.5t-50.5 -74t-62 -21.5q-22 5 -38.5 20t-24 30t-11.5 35t-4 26v11q-31 -54 -46.5 -118.5t-15.5 -102.5l-1 -37q0 -84 40.5 -154t109.5 -111
t151 -45t148 6.5t110 34t76 53.5t49 69t25 76.5t8 80.5q2 29 0 59.5t-6.5 58t-10.5 54.5t-13 50t-14 44t-13.5 37t-11.5 27.5t-8 18.5z" />
    <glyph glyph-name="uniE630" unicode="&#xe630;" 
d="M371 693q-92 0 -170.5 -38.5t-124.5 -105.5t-46 -147q0 -135 137 -230l-35 -102l120 59q86 -17 119 -17q8 0 16 0.5t16 1.5q-10 36 -10 71q0 112 84 191t206 79q14 0 32 -2q-14 68 -64 123t-123.5 86t-156.5 31zM260 462q-20 0 -35.5 12t-15.5 30.5t15.5 30.5t35.5 12
t31.5 -11.5t11.5 -30.5t-11.5 -31t-31.5 -12zM499 462q-20 0 -35.5 12t-15.5 30.5t15.5 30.5t35.5 12q19 0 31 -11.5t12 -30.5q0 -8 -2 -14.5t-6 -11.5t-9 -9t-11.5 -6t-14.5 -2zM994 189q0 67 -40.5 124t-107 90.5t-142.5 33.5q-121 0 -205.5 -72.5t-84.5 -175.5
q0 -67 38.5 -124t105 -90t146.5 -33q34 0 103 17l93 -52l-26 86q120 89 120 196zM610 232q-13 0 -23.5 10.5t-10.5 23.5q0 6 3 12.5t7.5 11t11 7.5t12.5 3q19 0 31 -10.5t12 -23.5q0 -7 -3 -13t-8.5 -10.5t-14 -7.5t-17.5 -3zM798 232q-13 0 -23.5 10.5t-10.5 23.5q0 8 5 16
t13 13t16 5q6 0 12 -1.5t10.5 -3.5t8.5 -5.5t6.5 -7t3.5 -8t1 -8.5q0 -22 -24 -31q-9 -3 -18 -3z" />
    <glyph glyph-name="uniE631" unicode="&#xe631;" 
d="M840 256h2l4 -4l6 -4q3 -3 6.5 -8.5t6 -12.5t3.5 -16.5t1 -21.5q-1 -17 -6 -30t-10.5 -20t-12 -11.5t-9 -5.5t-3.5 -1q1 -2 2 -5.5t2.5 -17.5t-3.5 -32q-4 -18 -15.5 -33.5t-21.5 -23.5l-10 -7q-6 -42 -35 -64q-17 -14 -43.5 -18.5t-60 -1.5t-59.5 7.5t-62 12.5t-47 11
q-35 6 -85 13.5t-104 12.5t-71 2q-11 -3 -23 32t-20.5 87t-13.5 104.5t-2.5 91t13.5 41.5q112 28 171 53q8 4 17 11.5t17.5 16.5t17.5 20l16 24q9 11 18 23t18 22.5t19 20.5t19 16q34 24 58.5 48t35.5 42t18 34.5t9 27t7 17t14 7.5h4q19 0 31.5 -1t36.5 -7.5t39.5 -19.5
t29.5 -40t17 -65q1 -22 -4 -41.5t-9.5 -28.5t-18.5 -31t-19 -31t-6 -13.5t3.5 -7t9.5 -3t18 -1.5q9 0 14.5 -0.5t15 -1.5t18.5 -3q28 -5 46.5 -33.5t17.5 -65.5q0 -16 -3 -29t-7 -19.5t-8.5 -11t-6.5 -5.5zM809 330q0 17 -13 30t-36 15q-9 1 -27 2q-18 2 -27 2.5t-22 3
t-18 6t-10 9t-4 14t6 20.5q8 16 17 34.5t15 30.5t12 25.5t10 24t6.5 22.5t2.5 24q0 31 -14.5 51.5t-37.5 20.5q-9 -1 -14.5 -9.5t-11.5 -24t-16.5 -34.5t-34.5 -44.5t-59 -49.5q-20 -14 -86 -89.5t-88 -84.5q-17 -8 -43.5 -14t-55 -11.5t-38.5 -7.5q-9 -3 -11 -32t2 -69
t11 -79.5t17 -65.5t19 -24h-3q21 4 96 -5.5t127 -18.5q7 -1 28 -5.5t35.5 -7t37 -6t39.5 -4.5t35 -1.5t32 3t23 9.5q11 8 17 22t6 25l-1 10q2 1 4.5 2.5t9 6.5t12 10.5t10.5 14.5t6 19t0 18.5t-3.5 15t-4.5 10.5t-4 6l-2 2q1 1 5 0t11.5 1t15 5.5t13.5 13t8 23t-1.5 25
t-9.5 19t-12 13t-11 7.5l-5 3q1 0 1.5 0.5t3 2t5 3.5t5.5 5.5t5.5 7t5.5 9t5 11.5t3 13.5t1 15.5z" />
    <glyph glyph-name="uniE632" unicode="&#xe632;" 
d="M512 -212q-16 0 -44 26.5t-54.5 60t-55 74.5t-41.5 61t-18 28q-18 29 -36 59.5t-42 77.5t-42 89.5t-30.5 89.5t-12.5 82q0 102 50.5 188.5t137 137t188.5 50.5q115 0 210 -64q4 -3 6 -7t1.5 -9t-2.5 -9q-5 -7 -12.5 -8.5t-13.5 3.5q-85 57 -189 57q-137 0 -236 -95
q-98 -96 -103 -232v-12q0 -68 46.5 -174t106 -198t114 -162t73.5 -77q20 6 75 76.5t113.5 163.5t104 199.5t45.5 171.5q0 96 -50 177q-4 7 -2 14.5t8 11.5q4 2 9 2t9.5 -2t7.5 -6q27 -45 41 -95t14 -102q0 -44 -17.5 -102.5t-45.5 -117t-51 -99.5t-46 -79q-4 -5 -8 -11.5
t-15.5 -24t-22.5 -34t-27 -39t-30.5 -41t-31 -38t-30.5 -32.5t-27.5 -21.5t-23.5 -8.5zM512 280q-77 0 -131.5 54t-54.5 131t54.5 131.5t131.5 54.5t131.5 -54.5t54.5 -131.5q0 -30 -9.5 -58.5t-27 -51t-40 -40t-51 -26.5t-58.5 -9zM512 614q-40 0 -74.5 -20t-54.5 -54
t-20 -75q0 -61 43.5 -105t105.5 -44q40 0 74.5 20t54.5 54.5t20 75t-20 74.5t-54.5 54t-74.5 20z" />
  </font>
</defs>
</svg>
